Компьютерный форум NoWa.cc
Правила Форума
редакция от 29.01.2013
Портал .::2Baksa.Net::. Трекер BRODIM.COM
Вернуться   Компьютерный форум NoWa.cc > Андеграунд - Софт > Обсуждение программ > Просмотр, конверторы и монтаж Аудио&Видео

Уважаемые пользователи nowa.cc и 2baksa.net. У нас сложилось тяжелое финансовое положение. Мы работаем для вас вот уже более 14 лет
и теперь вынуждены просить о помощи. Окажите посильную поддержку проектам. Мы очень надеемся на вас. Реквизиты для переводов ниже.
Webmoney Webmoney Z826074280762 Webmoney R087294265364 Webmoney U051530505194 Webmoney E804621616710
PayPal E-mail для связи / to Contact E-mail для связи по вопросу помощи / to Contact : E-mail для связи / to Contact
Кошелек для вашей помощи Yandex 410013204813773
Yandex Спасибо за поддержку!

Российский интернет-шлюз: контроль трафика, DLP, антивирус, fail2ban, прокси-сервер, шифрование данных, https-фильтрация. Сертификат ФСТЭК

загрузка...
Ответ
 
Опции темы Language
Старый 15.10.2011, 20:50   #1
Новичок
 
Пол:Мужской
Регистрация: 15.10.2011
Сообщений: 1
Репутация: 0
По умолчанию MediaCoder 2011

Здравствуйте!
Нужен совет...

Имеется MediaCoder2011-x64-R9-5191
Перепробовал кучу настроек, но никак не получается закодировать видео, для проигрывания на бытовом DVD плеере. Раньше получалось, но не помню настройки...
Бьюсь третий день.

Имеется видео:

Format : MPEG-4
Format profile : Base Media / Version 2
Codec ID : mp42
File size : 243 MiB
Duration : 5mn 32s
Overall bit rate : 6 132 Kbps
Encoded date : UTC 2011-09-14 07:54:17
Tagged date : UTC 2011-09-14 07:54:17
gsst : 0
gstd : 332120
gssd : BADC23A21HH1316122624066937
gshh : o-o.preferred.svo01s01.v13.lscache7.c.youtube.com

Video
ID : 1
Format : AVC
Format/Info : Advanced Video Codec
Format profile : High@L4.0
Format settings, CABAC : Yes
Format settings, ReFrames : 1 frame
Codec ID : avc1
Codec ID/Info : Advanced Video Coding
Duration : 5mn 32s
Bit rate : 5 975 Kbps
Maximum bit rate : 8 496 Kbps
Width : 1 920 pixels
Height : 1 080 pixels
Display aspect ratio : 16:9
Frame rate mode : Constant
Frame rate : 25.000 fps
Color space : YUV
Chroma subsampling : 4:2:0
Bit depth : 8 bits
Scan type : Progressive
Bits/(Pixel*Frame) : 0.115
Stream size : 237 MiB (97%)
Tagged date : UTC 2011-09-14 07:54:18

Audio
ID : 2
Format : AAC
Format/Info : Advanced Audio Codec
Format profile : LC
Codec ID : 40
Duration : 5mn 32s
Bit rate mode : Variable
Bit rate : 152 Kbps
Maximum bit rate : 199 Kbps
Channel(s) : 2 channels
Channel positions : Front: L R
Sampling rate : 44.1 KHz
Compression mode : Lossy
Stream size : 6.01 MiB (2%)
Title : IsoMedia File Produced by Google, 5-11-2011
Encoded date : UTC 2011-09-14 07:54:17
Tagged date : UTC 2011-09-14 07:54:18

На выходе необходимо получить:

avi
с кодеком xvid

Как это осуществить?

Выбираю в настройках
формат xvid
контейнер avi

на выходе получается файл avi, но с кодеком FMP4, и на плеере воспроизводиться не хочет...
Что я делаю не так?
Может какой друго
Seganapa вне форума
 
Ответить с цитированием Вверх
Надежный китайский посредник Taobao.com


Реклама: проекционный экранagb 0 0019246 50-85продажа земли банеры таблички калугатульская область дикая мята в июнесинтетическая бирка с люверсом


Ответ
 Уважаемые пользователи портала 2BakSa.NeT и форума NoWa.cc !

  Рады Вам сообщить, что у нас открылся Torrent трекер >> BRODIM.COM

  Приглашаем вас принять участие в обмене полезной информацией,

  и ждем от вас поддержки в создании новых раздач.

Опции темы

Похожие темы
Тема Автор Раздел Ответов Последнее сообщение
MediaCoder - универсальный транскодер аудио и видео файлов Blackoff Мультимедиа 188 19.03.2017 13:30
Генератор ключей для игр alawar и nevosoft 2011 БЕСПЛАТНО, без СМС. 2011 leo3210 Помощь по играм 1 02.02.2013 22:04
Portable MediaCoder zbychm Portable Софт 5 02.06.2012 10:52

Ваши права в разделе
Вы не можете создавать новые темы
Вы не можете отвечать в темах
Вы не можете прикреплять вложения
Вы не можете редактировать свои сообщения

BB коды Вкл.
Смайлы Вкл.
[IMG] код Вкл.
HTML код Выкл.

Быстрый переход


Текущее время: 17:34. Часовой пояс GMT +3.


Rambler's Top100
Copyright ©2004 - 2018 2Baksa.Net

Powered by vBulletin® Version 3.8.9
Copyright ©2000 - 2018, vBulletin Solutions, Inc. Перевод: zCarot
Время генерации страницы 0.11775 секунды с 11 запросами